ncis daredevil Star Trek Discovery mr robot en español dtone High Castle s03e07 0 Mile 22 2160p It 1080p 2018 Survivor the flash s05e03 ettv the good doctor supergirl the walking dead Flash great british bake off s09e09 DTOne better call saul etmovies 9-1-1 s02e04 1080p YIFY Vikings Manifest doctor who it 2017 shameless legends of tomorrow the walking dead s09e03 Supernatural this is us wwe incredibles 2 flash s05e03 NFL family guy hindi Ufc evo star trek discovery español big bang theory español venom fgt ethd Ethd Arrow s07e02 greys anatomy mayans season complete the big bang theory the flash american horror story Scorpion empire porn windows 10 Game Of Thrones lethal weapon lucifer south park ddr big bang theory Evo etrg arrow 2018 ita blindspot walking dead ita 
Warning! Do not Download Without a VPN!
Your IP Address is .   Location is
Download and surf securely, stream unlimited and protect your personal data!
We strongly recommend using SpyOFF VPN!
Become Anonymous with SpyOFF
ETTV Recommended TV Shows
SEAL.Team.S02E04.HDTV.x264-SHiTSPREAD[ettv] torrent
Greys.Anatomy.S15E05.HDTV.x264-KILLERS[ettv] torrent
Chicago.Fire.S07E05.HDTV.x264-SVA[ettv] torrent
American.Horror.Story.S08E07.WEBRip.x264-TBS[ettv] torrent

ETTV Recommended Xvid
Mile.22.2018.HDRip.XviD.AC3-EVO[EtMovies] torrent
The.Scorpion.King.Book.of.Souls.2018.HDRip.XViD-ETRG torrent
BlacKkKlansman.2018.HDRip.XViD.AC3-ETRG torrent
A.Happening.of.Monumental.Proportions.2018.HDRip.XViD-ETRG torrent

ETTV Recommended HD
Incredibles.2.2018.1080p.WEB-DL.DD5.1.H264-CMRG[EtHD] torrent
BlacKkKlansman.2018.1080p.WEB-DL.DD5.1.H264-CMRG[EtHD] torrent
Scorpion.King.The.Book.of.Souls.2018.1080p.WEB-DL.H264.AC3-EVO[EtHD] torrent
Mile.22.2018.1080p.HDRip.X264.AC3-EVO[EtHD] torrent

ETTV Recommended UHD
Constantine.City.of.Demons.2018.2160p.BluRay.x265.10bit.HDR.DTS-HD.MA.5.1-SWTYBLZ[EtHD] torrent
Your.Name.2016.2160p.UHD.BluRay.x265-VALiS[EtHD] torrent
Peter.Rabbit.2018.PLDUB.DUAL.2160p.UHD.BluRay.x265-FLAME[EtHD] torrent
Death.Wish.2018 BluRay 2160p DTS MA5 1 x265 10bit-CHD[EtHD] torrent

ETTV Recommended Cam
Bad Times at the El Royale 2018.HDCAM.XViD.AC3-ETRG torrent
Goosebumps 2 Haunted Halloween 2018 HDTS.x264.AC3-ETRG torrent
Halloween 2018.HDCAM.XViD.AC3-ETRG torrent
Night School 2018 HDTS XViD AC3-ETRG torrent

ETTV Recommended Foreign
The Avengers Trilogy (2012-2018) 1080p BluRay x264 Dual Audio [Hindi - English] DD5.1 - ESUB ~ Ranvijay torrent
Naa.Bangaaru.Talli.2013.1080p.NF.WebDL.AVC.DDP.5.1-DTOne torrent
Insidious The Last Key (2017) 1080p BluRay x264 Dual Audio [Hindi DD5.1 640 Kbps - English DD5.1] - MSUBS ~ Ranvijay torrent
Chotay Shah 2016 Hindi Untouched WebDL 1080p x264 - mkvCinemas torrent

Social


Download Torrent "The Big Bang Theory (2007) Season 07 S07 (1080p BluRay x265 10bit HEVC AAC ..."

IMDB Details
Description:

N/A

Genre:

N/A

Download Torrent (Magnet)
Download Torrent (File)
Seeds: 265
Leechers: 302
Completed: 1,523 
Last Checked: 07-10-2018 17:52:12


Loading...
Details
Title:The Big Bang Theory (2007) Season 07 S07 (1080p BluRay x265 10bit HEVC AAC ...
Description:





Media Information
General
Format                                   : Matroska
Format version                           : Version 4 / Version 2
File size                                : 210 MiB
Duration                                 : 21 min 24 s
Overall bit rate                         : 1 372 kb/s
Encoded date                             : UTC 2015-12-28 16:41:39
Writing application                      : mkvmerge v8.5.2 ('Crosses') 64bit
Writing library                          : libebml v1.3.3 + libmatroska v1.4.4

Video
ID                                       : 1
Format                                   : HEVC
Format/Info                              : High Efficiency Video Coding
Format profile                           : Main [email protected]@Main
Codec ID                                 : V_MPEGH/ISO/HEVC
Duration                                 : 21 min 22 s
Bit rate                                 : 1 165 kb/s
Width                                    : 1 920 pixels
Height                                   : 1 080 pixels
Display aspect ratio                     : 16:9
Frame rate mode                          : Constant
Frame rate                               : 23.976 (24000/1001) FPS
Color space                              : YUV
Chroma subsampling                       : 4:2:0
Bit depth                                : 10 bits
Bits/(Pixel*Frame)                       : 0.023
Stream size                              : 178 MiB (85%)
Writing library                          : x265 1.8+38-fe65544b6c40:[Windows][GCC 4.8.2][64 bit] 10bit
Encoding settings                        : wpp / ctu=64 / min-cu-size=8 / max-tu-size=32 / tu-intra-depth=1 / tu-inter-depth=1 / me=1 / subme=2 / merange=57 / no-rect / no-amp / max-merge=2 / temporal-mvp / no-early-skip / rdpenalty=0 / no-tskip / no-tskip-fast / strong-intra-smoothing / no-lossless / no-cu-lossless / no-constrained-intra / fast-intra / open-gop / no-temporal-layers / interlace=0 / keyint=250 / min-keyint=23 / scenecut=40 / rc-lookahead=15 / lookahead-slices=0 / bframes=4 / bframe-bias=0 / b-adapt=0 / ref=2 / limit-refs=0 / weightp / no-weightb / aq-mode=1 / qg-size=32 / aq-strength=1.00 / cbqpoffs=0 / crqpoffs=0 / rd=2 / psy-rd=0.30 / rdoq-level=0 / psy-rdoq=0.00 / signhide / deblock / sao / no-sao-non-deblock / b-pyramid / cutree / rc=2 / pass / bitrate=1163 / qcomp=0.60 / qpmin=0 / qpmax=51 / qpstep=4 / cplxblur=20.0 / qblur=0.5 / ipratio=1.40 / pbratio=1.30
Default                                  : Yes
Forced                                   : No

Audio
ID                                       : 2
Format                                   : AAC
Format/Info                              : Advanced Audio Codec
Format profile                           : HE-AAC / LC
Codec ID                                 : A_AAC
Duration                                 : 21 min 24 s
Bit rate                                 : 206 kb/s
Channel(s)                               : 6 channels
Channel positions                        : Front: L C R, Side: L R, LFE
Sampling rate                            : 48.0 kHz / 24.0 kHz
Frame rate                               : 23.438 FPS (1024 spf)
Compression mode                         : Lossy
Delay relative to video                  : 40 ms
Stream size                              : 31.6 MiB (15%)
Language                                 : English
Default                                  : Yes
Forced                                   : No

Subtitle
ID                                       : 3
Format                                   : UTF-8
Codec ID                                 : S_TEXT/UTF8
Codec ID/Info                            : UTF-8 Plain Text
Duration                                 : 20 min 37 s
Bit rate                                 : 85 b/s
Count of elements                        : 315
Stream size                              : 12.9 KiB (0%)
Language                                 : English
Default                                  : No
Forced                                   : No

Menu
00:00:00.000                             : en:00:00:00.000
00:02:39.785                             : en:00:02:39.785
00:10:42.267                             : en:00:10:42.267
00:20:25.641                             : en:00:20:25.641
00:20:54.879                             : en:00:20:54.879

Source Information
Release: Unknown Source/NO-GROUP


UTR wrote:

Note From UTR
We have no issue with individuals posting or re-uploading our torrents on a platform we aren't on. However, if this is something you'd like to do, please do so in a 'as-is' format. We ask that you do not create a new torrent, include all descriptions you see above including the UTR logo, tags, notes and screenshots. If you'd like to become a permanent poster on a website we don't post to, feel free to get in contact with a UniTeam member.

If possible please donate: BTC 1QA5fum5AyXvWzdVCkQzUNvw3Ef15fHRaR


Category:TV > HEVC/x265
Lang:English  English
Total Size:4.95 GB
Info Hash:0deb34698162e86325f0dc378dc76d8e7398dc08
Added By:UTR
Date Added:07-10-2018 17:52:03

Files

File List: 
 File Size
Encoded by JoyBell (UTR).txt2.73 kB
folder.jpg78.96 kB
How to play HEVC (THIS FILE).txt3.42 kB
Ninite K-Lite Codecs Unattended Silent Installer and Updater.website561.00 B
The Big Bang Theory S07E01 The Hofstadter Insufficiency (1080p x265 10bit Joy).mkv210 MB
The Big Bang Theory S07E02 The Deception Verification (1080p x265 10bit Joy).mkv210 MB
The Big Bang Theory S07E03 The Scavenger Vortex (1080p x265 10bit Joy).mkv210 MB
The Big Bang Theory S07E04 The Raiders Minimization (1080p x265 10bit Joy).mkv210 MB
The Big Bang Theory S07E05 The Workplace Proximity (1080p x265 10bit Joy).mkv210 MB
The Big Bang Theory S07E06 The Romance Resonance (1080p x265 10bit Joy).mkv240 MB
The Big Bang Theory S07E07 The Proton Displacement (1080p x265 10bit Joy).mkv210 MB
The Big Bang Theory S07E08 The Itchy Brainb Simulation (1080p x265 10bit Joy).mkv210 MB
The Big Bang Theory S07E09 The Thanksgiving Decoupling (1080p x265 10bit Joy).mkv210 MB
The Big Bang Theory S07E10 The Discovery Dissipation (1080p x265 10bit Joy).mkv210 MB
The Big Bang Theory S07E11 The Cooper Extraction (1080p x265 10bit Joy).mkv210 MB
The Big Bang Theory S07E12 The Hesitation Ramification (1080p x265 10bit Joy).mkv210 MB
The Big Bang Theory S07E13 The Occupation Recalibration (1080p x265 10bit Joy).mkv210 MB
The Big Bang Theory S07E14 The Convention Conundrum (1080p x265 10bit Joy).mkv210 MB
The Big Bang Theory S07E15 The Locomotive Manipulation (1080p x265 10bit Joy).mkv210 MB
The Big Bang Theory S07E16 The Table Polarization (1080p x265 10bit Joy).mkv210 MB
The Big Bang Theory S07E17 The Friendship Turbulence (1080p x265 10bit Joy).mkv210 MB
The Big Bang Theory S07E18 The Mommy Observation (1080p x265 10bit Joy).mkv210 MB
The Big Bang Theory S07E19 The Indecision Amalgamation (1080p x265 10bit Joy).mkv210 MB
The Big Bang Theory S07E20 The Relationship Diremption (1080p x265 10bit Joy).mkv210 MB
The Big Bang Theory S07E21 The Anything Can Happen Recurrence (1080p x265 10bit Joy).mkv210 MB
The Big Bang Theory S07E22 The Protron Transmogrification (1080p x265 10bit Joy).mkv210 MB
The Big Bang Theory S07E23 The Gorilla Dissolution (1080p x265 10bit Joy).mkv210 MB
The Big Bang Theory S07E24 The Status Quo Combustion (1080p x265 10bit Joy).mkv210 MB



Loading...
Comments

There are currently no comments. Be the first one to write something !

Disclaimer: None of the files shown here are actually hosted or transmitted by this server. The links are provided solely by this site's users. The site moderation is also a service provided by the site's users. The administrator of this site (ettv.tv) cannot be held responsible for what its users post, or any other actions of its users. You may not use this site to distribute or download any material when you do not have the legal rights to do so. It is your own responsibility to adhere to these terms.

Sitemap