blue bloods GREYS ANATOMY 2160p arrow español BlacKkKlansman etmovies star trek discovery español The flash 1080p YIFY macgyver Titans ufc ıt 2017 lethal weapon Blindspot the walking dead great british bake off s09e09 nfl cooltrane big bang theory español hindi 2018 ita fgt star trek discovery arrow Shameless doctor who jam miami formula 1 a star is born 2018 movies bbc south park web developer formula High Castle s03e07 Alpha 2018 coral egan game of thrones walking dead evo Big Bang Theory a discovery of witches vikings Incredibles 2 WWE ethd A Discovery of Witches S01E07 dtone Survivor venom claude quartet the good doctor ita the big bang theory ти пудовый champian fulton ddr porn ncis supergirl doctor who s11e04 0 ufc fight night 138 Chilling Adventures of Sabrina ettv etrg supernatural 
Warning! Do not Download Without a VPN!
Your IP Address is .   Location is
Download and surf securely, stream unlimited and protect your personal data!
We strongly recommend using SpyOFF VPN!
Become Anonymous with SpyOFF
ETTV Recommended TV Shows
Ghost.Adventures.S16E13.Cape.Disappointment.iNTERNAL.720p.HDTV.x264-DHD[ettv] torrent
UFC Fight Night 138 Volkan vs Smith HDTV x264-Ebi [TJET] torrent
Kidding.S01E08.Philliam.720p.AMZN.WEB-DL.DDP5.1.H.264-NTb[ettv] torrent
Doctor.Who.2005.S11E04.HDTV.x264-RiVER[ettv] torrent

ETTV Recommended Xvid
A-X-L.2018.HDRip.XviD.AC3-EVO[EtMovies] torrent
Nun.2017.HDRip.XviD.AC3-EVO torrent
Our.House.2018.BRRip.XViD-ETRG torrent
Charming.2018.BDRip.XviD.AC3-EVO torrent

ETTV Recommended HD
Down.a.Dark.Hall.2018.1080p.Bluray.x264.DTS-HDMA.5.1-DTOne torrent
Slender.Man.2018Multi.1080p.Bluray.x264.DTS-HDMA.5.1-DTOne torrent
Reprisal.2018.1080p.Bluray.x264.DTS-HDMA.5.1-DTOne torrent
Warning.Shot.2018.1080p.Bluray.x264.DTS-HDMA.5.1-DTOne torrent

ETTV Recommended UHD
Twilight.2008.Multi.UHD.2160p.Bluray.x265.HEVC.HDR.DD.5.1-DTOne torrent
Mamma.Mia.Here.We.Go.Again.2018.Multi.UHD.2160p.Bluray.x265.HDR.DDP.7.1-DTOne torrent
Only.The.Brave.2017.UHD.2160p.Bluray.x265.HDR.DD.5.1-DTOne torrent
The.Matrix.Reloaded.2003.Multi.UHD.2160p.Bluray.Remux.HEVC.HDR.Atmos.7.1-DTOne torrent

ETTV Recommended Cam
Goosebumps 2 Haunted Halloween 2018 HDTS.x264.AC3-ETRG torrent
Halloween 2018.HDCAM.XViD.AC3-ETRG torrent
Night School 2018 HDTS XViD AC3-ETRG torrent
King of Thieves 2018.HDTS.x264.AC3-ETRG torrent

ETTV Recommended Foreign
Redbad.2018.Multi.1080p.Bluray.x264.DTS.5.1-DTOne torrent
Baar.Baar.Dekho.2018.Complete.1080p.Ger.Bluray.DD.5.1-DTOne torrent
Hotel Transylvania 3 (2018) 720p BluRay x264 Dual Audio [Hindi DD5.1 - English DD2.0] - ESUBS ~ Exclusice By Ranvijay torrent
Saamy² (2018) [TAMIL - 1080p - WEB HDRip - x264 - DD 5.1 - ESub - 2GB] - MAZE torrent

Social


Download Torrent "The Big Bang Theory (2007) Season 05 S05 (1080p BluRay x265 HEVC AAC 5.1 Jo..."

IMDB Details
Description:

N/A

Genre:

N/A

Download Torrent (Magnet)
Download Torrent (File)
Seeds: 300
Leechers: 233
Completed: 1,547 
Last Checked: 07-10-2018 17:50:03


Loading...
Details
Title:The Big Bang Theory (2007) Season 05 S05 (1080p BluRay x265 HEVC AAC 5.1 Jo...
Description:





Media Information
General
Format                                   : MPEG-4
Format profile                           : Base Media / Version 2
Codec ID                                 : mp42 (isom/iso2/mp41)
File size                                : 169 MiB
Duration                                 : 21 min 30 s
Overall bit rate mode                    : Variable
Overall bit rate                         : 1 095 kb/s
Movie name                               : Big Bang Theory S05 E01
Writing application                      : HandBrake 0.10.0 2014112200

Video
ID                                       : 1
Format                                   : HEVC
Format/Info                              : High Efficiency Video Coding
Format profile                           : [email protected]@Main
Codec ID                                 : hev1
Codec ID/Info                            : High Efficiency Video Coding
Duration                                 : 21 min 29 s
Bit rate                                 : 899 kb/s
Width                                    : 1 920 pixels
Height                                   : 1 080 pixels
Display aspect ratio                     : 16:9
Frame rate mode                          : Variable
Frame rate                               : 23.976 (24000/1001) FPS
Minimum frame rate                       : 23.810 FPS
Maximum frame rate                       : 24.390 FPS
Color space                              : YUV
Chroma subsampling                       : 4:2:0
Bit depth                                : 8 bits
Bits/(Pixel*Frame)                       : 0.018
Stream size                              : 138 MiB (82%)
Writing library                          : x265 1.4:[Windows][GCC 4.9.0][64 bit]
Encoding settings                        : wpp / ctu=64 / tu-intra-depth=1 / tu-inter-depth=1 / me=1 / subme=2 / merange=57 / no-rect / no-amp / max-merge=2 / temporal-mvp / no-early-skip / no-fast-cbf / rdpenalty=0 / no-tskip / no-tskip-fast / strong-intra-smoothing / no-lossless / no-cu-lossless / no-constrained-intra / no-fast-intra / open-gop / interlace=0 / keyint=240 / min-keyint=24 / scenecut=40 / rc-lookahead=20 / bframes=4 / bframe-bias=0 / b-adapt=2 / ref=3 / weightp / no-weightb / aq-mode=2 / aq-strength=1.00 / cbqpoffs=0 / crqpoffs=0 / rd=3 / psy-rd=0.00 / psy-rdoq=0.00 / signhide / lft / sao / no-sao-non-deblock / b-pyramid / cutree / rc=2 / pass / bitrate=900 / ratetol=1.0 / qcomp=0.60 / qpmin=0 / qpmax=51 / qpstep=4 / cplxblur=20.0 / qblur=0.5 / ipratio=1.40 / pbratio=1.30
Color range                              : Limited
Color primaries                          : BT.709
Transfer characteristics                 : BT.709
Matrix coefficients                      : BT.709

Audio
ID                                       : 2
Format                                   : AAC
Format/Info                              : Advanced Audio Codec
Format profile                           : HE-AAC / LC
Codec ID                                 : 40
Duration                                 : 21 min 30 s
Bit rate mode                            : Variable
Bit rate                                 : 192 kb/s
Channel(s)                               : 2 channels
Channel(s)_Original                      : 6 channels
Channel positions                        : Front: L C R, Side: L R, LFE
Sampling rate                            : 48.0 kHz / 24.0 kHz
Frame rate                               : 23.438 FPS (1024 spf)
Compression mode                         : Lossy
Stream size                              : 29.5 MiB (18%)
Title                                    : Surround / Surround
Default                                  : Yes
Alternate group                          : 1

Source Information
Release: Unknown Source/NO-GROUP


UTR wrote:

Note From UTR
We have no issue with individuals posting or re-uploading our torrents on a platform we aren't on. However, if this is something you'd like to do, please do so in a 'as-is' format. We ask that you do not create a new torrent, include all descriptions you see above including the UTR logo, tags, notes and screenshots. If you'd like to become a permanent poster on a website we don't post to, feel free to get in contact with a UniTeam member.

If possible please donate: BTC 1QA5fum5AyXvWzdVCkQzUNvw3Ef15fHRaR


Category:TV > HEVC/x265
Lang:English  English
Total Size:3.83 GB
Info Hash:eabd06985f2c74be2aef2df365217aa72ed51f5c
Added By:UTR
Date Added:07-10-2018 17:49:53

Files

File List: 
 File Size
Encoded by JoyBell (UTR).txt2.73 kB
folder.jpg72.83 kB
How to play HEVC (THIS FILE).txt3.42 kB
Ninite K-Lite Codecs Unattended Silent Installer and Updater.website561.00 B
The Big Bang Theory S05E01 The Skank Reflex Analysis (1080p x265 Joy).m4v169 MB
The Big Bang Theory S05E02 The Infestation Hypothesis (1080p x265 Joy).m4v155 MB
The Big Bang Theory S05E03 The Pulled Groin Extrapolation (1080p x265 Joy).m4v158 MB
The Big Bang Theory S05E04 The Wiggly Finger Catalyst (1080p x265 Joy).m4v158 MB
The Big Bang Theory S05E05 The Russian Rocket Reaction (1080p x265 Joy).m4v169 MB
The Big Bang Theory S05E06 The Rhinitis Revelation (1080p x265 Joy).m4v168 MB
The Big Bang Theory S05E07 The Good Guy Fluctuation (1080p x265 Joy).m4v156 MB
The Big Bang Theory S05E08 The Isolation Permutation (1080p x265 Joy).m4v166 MB
The Big Bang Theory S05E09 The Ornithophobia Diffusion (1080p x265 Joy).m4v168 MB
The Big Bang Theory S05E10 The Flaming Spittoon Acquisition (1080p x265 Joy).m4v162 MB
The Big Bang Theory S05E11 The Speckerman Recurrence (1080p x265 Joy).m4v154 MB
The Big Bang Theory S05E12 The Shiny Trinket Maneuver (1080p x265 Joy).m4v163 MB
The Big Bang Theory S05E13 The Recombination Hypothesis (1080p x265 Joy).m4v168 MB
The Big Bang Theory S05E14 The Beta Test Initiation (1080p x265 Joy).m4v161 MB
The Big Bang Theory S05E15 The Friendship Contraction (1080p x265 Joy).m4v161 MB
The Big Bang Theory S05E16 The Vacation Solution (1080p x265 Joy).m4v169 MB
The Big Bang Theory S05E17 The Rothman Disintegration (1080p x265 Joy).m4v167 MB
The Big Bang Theory S05E18 The Werewolf Transformation (1080p x265 Joy).m4v165 MB
The Big Bang Theory S05E19 The Weekend Vortex (1080p x265 Joy).m4v160 MB
The Big Bang Theory S05E20 The Transporter Malfunction (1080p x265 Joy).m4v169 MB
The Big Bang Theory S05E21 The Hawking Excitation (1080p x265 Joy).m4v152 MB
The Big Bang Theory S05E22 The Stag Convergence (1080p x265 Joy).m4v169 MB
The Big Bang Theory S05E23 The Launch Acceleration (1080p x265 Joy).m4v169 MB
The Big Bang Theory S05E24 The Countdown Reflection (1080p x265 Joy).m4v168 MB



Loading...
Comments

There are currently no comments. Be the first one to write something !

Disclaimer: None of the files shown here are actually hosted or transmitted by this server. The links are provided solely by this site's users. The site moderation is also a service provided by the site's users. The administrator of this site (ettv.tv) cannot be held responsible for what its users post, or any other actions of its users. You may not use this site to distribute or download any material when you do not have the legal rights to do so. It is your own responsibility to adhere to these terms.

Sitemap